Dont Miss To Get Latest Movies and Tv Show Direct In Your Inbox Enter your email address:  

Vera (2019) Hindi Dubbed Movie 720p

July 5, 2019 Hindi Dubbed 720p

Changed Domain Please Use Our New Domain https://7starhd.trade 

Download Here                   Watch Now

Vera (2019) Hindi Dubbed Movie 720p

General
Complete name : Vera (2019) Hindi Dubbed Movie
Format : MPEG-4
Format profile : Base Media / Version 2
Codec ID : mp42 (mp42)
File size : 701 MiB
Duration : 2 h 18 min
Overall bit rate : 708 kb/s
Codirector : codirector
Production studio : studio

Video
Format : AVC
Format/Info : Advanced Video Codec
Format profile : [email protected]
Format settings, CABAC : Yes
Format settings, RefFrames : 4 frames
Format settings, GOP : M=3, N=25
Muxing mode : Container [email protected]
Codec ID : avc1
Codec ID/Info : Advanced Video Coding
Duration : 2 h 18 min
Bit rate : 510 kb/s
Width : 720 pixels
Height : 306 pixels
Display aspect ratio : 2.35:1
Frame rate mode : Constant
Frame rate : 25.000 FPS
Color space : YUV
Chroma subsampling : 4:2:0
Bit depth : 8 bits
Scan type : Progressive
Bits/(Pixel*Frame) : 0.093
Stream size : 505 MiB (72%)
Language : English

Audio
Format : AAC
Format/Info : Advanced Audio Codec
Format profile : LC
Codec ID : 40
Duration : 2 h 18 min
Source duration : 2 h 18 min
Bit rate mode : Constant
Bit rate : 192 kb/s
Channel(s) : 2 channels
Channel positions : Front: L R
Sampling rate : 44.1 kHz
Frame rate : 43.066 FPS (1024 SPF)
Compression mode : Lossy
Stream size : 190 MiB (27%)
Source stream size : 190 MiB (27%)
Title : Stereo
Language : English








TheFilesLocker Link

openload Link

BDupload Link

Indishare Link

Clicknupload Link

uploadbuzz Link

uppom.live Link

Note: If you Can’t See the links Please Use VPN or any proxy thanks

Download Here                   Watch Now
How to Download ? ]

Comments